Do more on the web, with a fast and secure browser!

Download Opera browser with:

  • built-in ad blocker
  • battery saver
  • free VPN
Download Opera

Анимация на фоновый рисунок

    1. Установите себе анимацию на Экспресс-панель(любую).
    2. Зайдите в папку профиля : Меню>O программе>Пути>Профиль
    3. Откройте папку themes
    4. Найдите свою анимированную тему и посмотрите, какие файлы необходимы для анимации.
  • @operasilver40 Самый умный? Или ты читать не умеешь? Человек написал-заставка статична остаётся. У меня та же проблема...ах да для умника-фон выбрал через стандартные встроенные темы.

  • @xaxol74ru Это не встроенные темы, а загруженные на выбор пользователя. Их там 300+шт . Если хочешь свою гифку на фон, её нужно конвертировать в формат webpAshampoo_Snap_28 мая 2021 г.19h24m44s_005.jpg . Сайт https://ezgif.com/gif-to-webp
    Конвертируешь, сохраняешь и выбираешь как обычную тему и всё движется.

  • @keks6067
    Вроде опера поддерживает ещё apng. Анимация как бы лучше если только исходники png.

  • У меня Opera50 portable.
    В качестве фонового рисунка для экспресс-панели попробовал и WEBP и APNG - изображение статичное, не двигается.
    У кого-нибудь вообще анимация работает?
    alt text

  • @azot Только что попробовал эту анимацию с водой. Просто скопировал и поставил как фоновый рисунок. Всё движется.
    Версия:63.0.3368.94 В самом низу ссылка на видеоскриншот.
    Ashampoo_Snap_29 мая 2021 г.13h55m17s_004.jpg
    Ashampoo_Snap_29 мая 2021 г.13h52m40s_003.jpg
    https://radikal.ru/video/FeumKVBUTUH

  • @keks6067
    Подтверждаю, работают оба формата

    opera-developer --version
    77.0.4046.0
    

    @azot
    Opera addons - а эти?
    Я попробовал summer-green-grass. Копируется в оперный профиль в папку themes.

    • first_frame_start_page.jpeg
    • persona.ini
    • video.webm
  • @keks6067
    Переконвертировал в формат WEBM, работает! плещется водичка! 🙂

  • @fonm
    Какие-то стрёмные там темы! да ещё с таким весом по 5 мб!

    А водичку переконвертировал в формат WEBM, работает! плещется водичка! 🙂

  • @azot
    Ну ещё б! Ведь формат видео!

    file video.webm
    video.webm: data
    
    
    mediainfo -f video.webm
    General
    Count                                    : 331
    Count of stream of this kind             : 1
    Kind of stream                           : General
    Kind of stream                           : General
    Stream identifier                        : 0
    Count of video streams                   : 1
    Video_Format_List                        : VP9
    Video_Format_WithHint_List               : VP9
    Codecs Video                             : VP9
    Video_Language_List                      : English
    Complete name                            : video.webm
    File name extension                      : video.webm
    File name                                : video
    File extension                           : webm
    Format                                   : WebM
    Format                                   : WebM
    Format/Url                               : http://www.webmproject.org/
    Format/Extensions usually used           : webm
    Commercial name                          : WebM
    Format version                           : Version 2
    Internet media type                      : video/webm
    File size                                : 715080
    File size                                : 698 KiB
    File size                                : 698 KiB
    File size                                : 698 KiB
    File size                                : 698 KiB
    File size                                : 698.3 KiB
    Duration                                 : 5000
    Duration                                 : 5 s 0 ms
    Duration                                 : 5 s 0 ms
    Duration                                 : 5 s 0 ms
    Duration                                 : 00:00:05.000
    Duration                                 : 00:00:05:00
    Duration                                 : 00:00:05.000 (00:00:05:00)
    Overall bit rate                         : 1144128
    Overall bit rate                         : 1 144 kb/s
    Frame rate                               : 24.000
    Frame rate                               : 24.000 FPS
    Frame count                              : 120
    Stream size                              : 32630
    Stream size                              : 31.9 KiB (5%)
    Stream size                              : 32 KiB
    Stream size                              : 32 KiB
    Stream size                              : 31.9 KiB
    Stream size                              : 31.87 KiB
    Stream size                              : 31.9 KiB (5%)
    Proportion of this stream                : 0.04563
    IsStreamable                             : Yes
    File last modification date              : UTC 2021-04-21 13:47:32
    File last modification date (local)      : 2021-04-21 20:47:32
    Writing application                      : Lavf57.56.100
    Writing application                      : Lavf57.56.100
    Writing library                          : Lavf57.56.100
    Writing library                          : Lavf57.56.100
    
    Video
    Count                                    : 377
    Count of stream of this kind             : 1
    Kind of stream                           : Video
    Kind of stream                           : Video
    Stream identifier                        : 0
    StreamOrder                              : 0
    ID                                       : 1
    ID                                       : 1
    Unique ID                                : 1
    Format                                   : VP9
    Format                                   : VP9
    Commercial name                          : VP9
    Codec ID                                 : V_VP9
    Codec ID/Url                             : http://www.webmproject.org/
    Duration                                 : 5000
    Duration                                 : 5 s 0 ms
    Duration                                 : 5 s 0 ms
    Duration                                 : 5 s 0 ms
    Duration                                 : 00:00:05.000
    Duration                                 : 00:00:05:00
    Duration                                 : 00:00:05.000 (00:00:05:00)
    Bit rate                                 : 1091921
    Bit rate                                 : 1 092 kb/s
    Width                                    : 1104
    Width                                    : 1 104 pixels
    Height                                   : 621
    Height                                   : 621 pixels
    Pixel aspect ratio                       : 1.001
    Display aspect ratio                     : 1.779
    Display aspect ratio                     : 16:9
    Frame rate mode                          : CFR
    Frame rate mode                          : Constant
    Frame rate                               : 24.000
    Frame rate                               : 24.000 FPS
    Frame count                              : 120
    Bits/(Pixel*Frame)                       : 0.066
    Stream size                              : 682450
    Stream size                              : 666 KiB (95%)
    Stream size                              : 666 KiB
    Stream size                              : 666 KiB
    Stream size                              : 666 KiB
    Stream size                              : 666.5 KiB
    Stream size                              : 666 KiB (95%)
    Proportion of this stream                : 0.95437
    Language                                 : en
    Language                                 : English
    Language                                 : English
    Language                                 : en
    Language                                 : eng
    Language                                 : en
    Default                                  : Yes
    Default                                  : Yes
    Forced                                   : No
    Forced                                   : No